Clash of the Titans (2010) - DVDrip

View previous topic View next topic Go down

Clash of the Titans (2010) - DVDrip

Post  nagy1992 on Mon Aug 23, 2010 9:35 am

[You must be registered and logged in to see this link.]



Scurta descriere:

Aceasta noua versiune la clasicul film din 1981 cu acelasi titlu il are in centrul povestii pe Perseu, fiul lui Zeus, crescut printre oameni. Lupta pentru putere ii gaseste pe oameni infruntand regii si regii infruntand zeii. Numai ca razboiul dintre zei ar putea distruge intreaga lume. In fata lui Hades, zeul lumii de dincolo, Perseu este neajutorat, nereusind sa isi salveze familia. El se ofera voluntar intr-o misiune periculoasa de a-l infrange pe Hades inainte ca acesta sa puna mana pe puterea lui Zeus, vrand sa elibereze iadul pe pamant. In fruntea unor razboinici viteji, Perseu porneste intr-o calatorie plina de pericole in lumile interzise, acolo unde se va lupta cu creaturi, bestii si demoni, in fata carora va triumfa numai daca isi accepta conditia de zeu, numai daca isi va sfida soarta si isi va crea propriul sau destin.

Titlu: Clash of the Titans
Size:1.27 GiB
Data lansare (SUA): 02 Aprilie 2010
Data lansare (Romania): 16 Aprilie 2010
Perioda filmare: 27 Aprilie 2009 - ??
Buget: 125,000,000 $
Incasari weekend: 61,235,105 $
Incasari totale: 163,192,114 $

[You must be registered and logged in to see this link.]

Format : AVI
Format/Info : Audio Video Interleave
Format profile : OpenDML
File size : 1.26 GiB
Duration : 1h 46mn

Overall bit rate : 1 707 Kbps


Video
ID : 0
Format : MPEG-4 Visual
Format profile : AdvancedSimple@L5
Format settings, BVOP : Yes
Format settings, QPel : No
Format settings, GMC : No warppoints
Format settings, Matrix : Custom
Muxing mode : Packed bitstream
Codec ID : XVID
Codec ID/Hint : XviD
Duration : 1h 46mn
Bit rate : 1 512 Kbps
Width : 720 pixels
Height : 304 pixels
Display aspect ratio : 2.35:1
Frame rate : 23.976 fps
Resolution : 24 bits
Colorimetry : 4:2:0
Scan type : Progressive
Bits/(Pixel*Frame) : 0.288
Stream size : 1.12 GiB (89%)
Writing library : XviD 1.2.1 (UTC 2008-12-04)

Audio
ID : 1
Format : MPEG Audio
Format version : Version 1
Format profile : Layer 3
Codec ID : 55
Codec ID/Hint : MP3
Duration : 1h 46mn
Bit rate mode : Constant
Bit rate : 192 Kbps
Channel(s) : 2 channels
Sampling rate : 48.0 KHz
Resolution : 16 bits
Stream size : 146 MiB (11%)
Alignment : Aligned on interleaves
Interleave, duration : 500 ms
avatar
nagy1992

Numarul mesajelor : 136
Data de inscriere : 2009-04-10
Varsta : 25
Localizare : Resita

http://xforum.forumclan.com

Back to top Go down

View previous topic View next topic Back to top


 
Permissions in this forum:
You cannot reply to topics in this forum