Similar topics

    Sex and the City 2 (2010) - DVDrip

    View previous topic View next topic Go down

    Sex and the City 2 (2010) - DVDrip

    Post  nagy1992 on Sun Aug 22, 2010 7:06 pm

    [You must be registered and logged in to see this link.]



    Scurta descriere:

    Actiunea sequelului este plasata la doi ani dupa actiunea primului film. In acesti ani multe lucruri se pot intampla, lucruri la care nici nu visezi. Pe cand te-ai gandit ca ai vazut tot ce era de vazut, lucrurile se complica si mai mult. Carrie, Samantha, Charlotte si Miranda incep un nou sir de aventuri, care le va purta de data aceasta departe de aglomeratia New York-ului, mai exact, in desert. Prietenia, distractia si moda vor fi din nou ingredientele principale - acum intr-o locatie mult mai exotica.

    Titlu: Sex and the City 2
    Data lansare (SUA): 27 Mai 2010
    Data lansare (Romania): 04 Iunie 2010
    Perioda filmare: Septembrie 2009 - ??
    Incasari weekend: 31,145,000 $
    Incasari totale: 95,239,397 $
    Site oficial: Sex and the City 2


    [You must be registered and logged in to see this link.]

    Format : AVI
    Format/Info : Audio Video Interleave
    Format profile : OpenDML
    File size : 1.37 GiB
    Duration : 2h 20mn
    Overall bit rate : 1 390 Kbps

    Video
    ID : 0
    Format : MPEG-4 Visual
    Format profile : E-mail
    Format settings, BVOP : Yes
    Format settings, QPel : No
    Format settings, GMC : No warppoints
    Format settings, Matrix : Default (H.263)
    Muxing mode : Packed bitstream
    Codec ID : XVID
    Codec ID/Hint : XviD
    Duration : 2h 20mn
    Bit rate : 1 193 Kbps
    Width : 720 pixels
    Height : 288 pixels
    Display aspect ratio : 2.500
    Frame rate : 25.000 fps
    Resolution : 24 bits
    Colorimetry : 4:2:0
    Scan type : Progressive
    Bits/(Pixel*Frame) : 0.230
    Stream size : 1.17 GiB (86%)
    Writing library : XviD 1.2.1 (UTC 2008-12-04)

    Audio
    ID : 1
    Format : AC-3
    Format/Info : Audio Coding 3
    Codec ID : 2000
    Duration : 2h 20mn
    Bit rate mode : Constant
    Bit rate : 192 Kbps
    Channel(s) : 2 channels
    Channel positions : L R
    Sampling rate : 48.0 KHz
    Stream size : 193 MiB (14%)
    Alignment : Aligned on interleaves
    Interleave, duration : 64 ms (1.60 video frames)
    Interleave, preload duration : 192 ms

    avatar
    nagy1992

    Numarul mesajelor : 136
    Data de inscriere : 2009-04-10
    Varsta : 25
    Localizare : Resita

    http://xforum.forumclan.com

    Back to top Go down

    View previous topic View next topic Back to top

    - Similar topics

     
    Permissions in this forum:
    You cannot reply to topics in this forum